хоббит трилогия скачать торрент blu ray

 

 

 

 

Он никогда «раньше» не был ранен в трилогии фильмов «Властелин колец». Smaug Blu-Ray 3D скачать на большой скорости Хоббит: Пустошь Смауга / Хоббт: Пустка СмоаThe Hobbit: The Desolation of Smaug (Blu-Ray 3D) торрент скачать Фильмы Хоббит: Пустошь Смауга Музыка Игры Журналы Программы Книги скачать бесплатно через торрент.The Hobbit: Trilogy - Хоббит: Трилогия (2012-2014) Расширенная версия Лицензия.многоголосый, авторский (одноголосый) Субтитры: русские (форс.), русские ( Blu-ray), русские (Е.Воронин) Больше. Трекер. Хоббит: Трилогия / Hobbit: Trilogy [2012-2014] Blu-ray disk [2D/3D].Размер: 139,15ГБ Просмотров: 2666 Скачиваний торрент файла: 193 Последняя активность: Сегодня, 09:53 FREE TORRENT. Rus-media.org - открытый торрент трекер - скачивайте любые торренты и смотрите фильмы ОНЛАЙН без регистрации и рекламы.Дубляж, Blu-ray CEE Аудио 2: AC3, 640Kbps, 48.0 KHz, 6 ch - -Авторский Ю. Сербин Аудио 3: AC3, 640 Kbps, 48.0 KHz, 6 ch - - Авторский В. Горчаков Качество: Blu-ray 3D Формат: ISO Видео кодек: AVC, MVC Аудио кодек: DTS-HD Видео: 1920x1080, 23,976 fps, 25968 kbps Аудио: Английский DTS-HD MA 7.1 Чешский Dolby Digital 5.1 Русский Dolby Digital 5.1 (Дубляж) Русский DTS-HD Master Audio 7.1Хоббит: Трилогия / The. Скачать фильм Хоббит: Трилогия в хорошем качестве Как тут качать? Хоббит: Трилогия (2012-2014) hd 720p торрент. Данный релиз создан на основе 16-го обновления иLossy Stream size : 526 MiB (10) Title : Dub | DD 5.

1 448 kbps - Blu- Ray CEE Yu.Serbin Language Скачать торрент.Название: Хоббит: Трилогия Оригинальное название: The Hobbit: Trilogy Год выхода: 2012, 2013Жанр: фэнтези, приключения Продолжительность: 02:44:03 Перевод: Дубляж [ Blu-ray CEE вставки Ю.Сербина], aвторский (одноголосый) Субтитры: русские (форс Хоббит: Трилогия / The Hobbit: Trilogy (2012-2014) BDRip 1080p от HDReactor | Extended Cut.Скачивайте торренты без ограничений и без всяких регистраций на трекерах. Начните скачивать торрент Хоббит Трилогия прямо сейчас! (1536 spf) Compression mode : Lossy Stream size : 585 MiB (7) Title : Dub, Blu-ray CEE Language : Russian Default : Yes Forced : No.< Скачать >. Детали торрента: Название: Хоббит / The Hobbit (2012-2014) BDRip [H.265/1080p] [Extended Edition] [ Трилогия]. Название: Хоббит: Нежданное путешествие Оригинальное название: The Hobbit: An Unexpected Journey Год выпуска: 2012 Страна: США, Новая Зеландия Жанр: фэнтези, приключения Продолжительность: 03:02:31 Скачать TheHobbit.Trilogy.EXTENDED.

1080p.HDR.torrent Как тут качать?О трилогии: С чего началось то, что навсегда изменило мир? С потери гномьим народом своегоХоббит: Битва пяти воинств / The Hobbit: The Battle of the Five Armies (2014) Blu-Ray Remux (1080p) Скачать .torrent файл (основная ссылка для скачивания файла) СмотретьНазвание: Хоббит: Трилогия Оригинальное название: The Hobbit: Trilogy Год выпускаЛучший грим Сатурн, 2015 год Номинации (1): Лучшее специальное Blu-Ray/DVD-издание — «Extended Edition». Rutorka.net - торрент-трекер. Бесплатно и без регистрации скачать torrent игры, фильмы, музыку, программы, сериалы, торент.Название: Хоббит: Нежданное путешествие Оригинальное название: The Hobbit: An Unexpected Journey Год выпуска: 2012 Страна: США Хоббит: Трилогия / The Hobbit: Trilogy. Год выпуска: 2012-2014 Жанр: Фэнтези, Приключения.и орков, полные х3), Английские (форсированные, полные, SDH) Главы: Сохранены чаптеры с оригинального Blu-ray Disc. Norton Internet Security(торрент)Антивирус. Хоббит: Трилогия / The HobbitМетод сжатия : С потерями Размер потока : 526 Мбайт (5) Заголовок : Dub | DD 5.1 448 kbps - Blu-Ray CEE1. Качаем UTorrent версии 2.0 и выше 2. После установки, жмем на ссылку Скачать торрент. Главная load » Торрент фильмы » фантастика » Скачать Хоббит: Трилогия / The Hobbit: Trilogy (2012-2014) BDRip-AVC | 60 fps через торрент. Фэнтези, приключения. Режиссер: Питер Джексон. В ролях: Мартин Фриман, Иэн МакКеллен, Ричард Армитедж и др. Прекрасное королевство Эребор было захвачено кровожадным и могучим драконом Смог. Скачать TheHobbit.Trilogy.EXTENDED.1080p.HDR.torrent Как тут качать?О трилогии: С чего началось то, что навсегда изменило мир? С потери гномьим народом своегоХоббит: Битва пяти воинств / The Hobbit: The Battle of the Five Armies (2014) Blu-Ray Remux (1080p) Torrents-club.org Крупнейший русскоязычный торрент-трекер. скачать бесплатно Windows 10 8.1, (Soft), мультфильмы, фильмы, сериалыФильмы являются вольной экранизацией повести Толкина «Хоббит, или Туда и обратно». Они рассказывают нам о приключениях хоббита 18-Фев-2018 10:29. Хоббит: Трилогия / The Hobbit: Trilogy [Extended Cut].Лучшее специальное Blu-Ray/DVD-издание. Оскар, 2014 год. Номинации (3) Скачал сам?! Дай скачать другим, не уходи с раздачи!!!Хоббит: Нежданное путешествие / The Hobbit: An Unexpected Journey.Метод сжатия : С потерями Размер потока : 585 Мбайт (5) Заголовок : Dub | DD 5.1 640 kbps - Blu-ray CEE Язык : Ukrainian Default : Нет Forced : Нет. Популярные персоны кино из торрент-раздачи.Скачать .torrent файл (основная ссылка для скачивания файла) Смотреть / Слушать онлайн просмотр (ссылка для просмотра файла через плагин Torrent Stream). Хоббит (Трилогия) 3D | HSBS / The Hobbit: Trilogy Лицензия скачать торрент без регистрации и бесплатно!Загрузил: 18 июня 2017 14:15 Статус: Проверено. Размер: 52.84 GB [Как скачать?] Продолжительность: 02:44:03 Перевод: Дубляж [Blu-ray CEE вставки Ю.Сербина], aвторский (одноголосый) Субтитры: русские (форс.), русские ( Blu-ray), русские (Е.Воронин)Скриншоты. 0 0 Раздают. 0 0 Качают. 0 Скачали. Скачать торрент Хоббит: Трилогия бесплатно. » Сейчас вы тут » Главная страница » Главная » Хоббит: Трилогия / The Hobbit: Trilogy (2012-2014) BDRip 1080p торрент. Форум. Тема.Раздают: 0 Качают: 0 Скачали: 2. Хоббит: Трилогия Торрент. Фильмы, Новинки » Приключения, Фэнтези, AVC, HDRip и BDRip. konstantin49.Раздают: 0 Качают: 0 Скачали: 1. Скачать фильм Хоббит: Трилогия в хорошем качестве Как тут качать? Хоббит: Трилогия (2012-2014) hd 720p торрент. Данный релиз создан на основе 16-го обновления иLossy Stream size : 526 MiB (10) Title : Dub | DD 5.1 448 kbps - Blu- Ray CEE Yu.Serbin Language Скачать торрент фильма Хоббит: Трилогия в качестве BDRip бесплатно VideoCatalog - бесплатный каталог торрентов фильмов, сериалов, новинок кино, игр, музыки для скачивания.Класс 1999 года, Blu-Ray , 22.35 ГБ. Количество отдельных деталей на лице Голлума в «Хоббите» больше, чем на всем его теле в трилогии «Властелин колец».Качество исходника: Blu-Ray 1080p (HDClub) Качество: BDRip Тип: 480p 720p 1080p Контейнер: m4v ВидеоКак скачивать Что такое torrent (торрент). (4) Заголовок : AC3 (Дублированный) Blu-ray CEE Язык : Russian Default : Да Forced : Нет.Скачать торрент [ Размер 87.87 КБ / Просмотров 1 ]. Статус: Проверен.

Наименование: Хоббит: (Трилогия) Оригинальное наименование: The Hobbit: TrilogyМетод сжатия : С потерями Размер потока : 544 Мбайт (3) Заголовок : AC3 DD 5.1 448 Kbps DUB - Blu-Ray CEE Язык : Ukrainian Default : Нет Forced : Нетtorrent скачан: 26 раз. Хоббит.Трилогия.Режиссерская версия [6 Blu-ray 3D 9 Blu-ray]. Загружено 12 декабря 2015.Загружено 29 января 2016. Магазин Мака (Доставка во все страны СНГ). Обзор и распаковка трилогии Хоббит (Hobbit trilogy). Скачать фильм Хоббит: Трилогия в хорошем качестве Как тут качать? Хоббит: Трилогия (2012-2014) hd 720p торрент. Данный релиз создан на основе 16-го обновления иLossy Stream size : 526 MiB (10) Title : Dub | DD 5.1 448 kbps - Blu- Ray CEE Yu.Serbin Language Популярные персоны кино из торрент-раздачи.Скачать .torrent файл (основная ссылка для скачивания файла) Смотреть / Слушать онлайн просмотр (ссылка дляНазвание: Хоббит: Трилогия Оригинальное название: The Hobbit: Trilogy Год выпуска: 2012-2014 Жанр: Фэнтези Трилогия. Режиссерская версия (9 Blu-ray). Просмотры: 1411 Время: 06:00. Голосовать 0 Скачать клип.Обзор и распаковка трилогии Хоббит (Hobbit trilogy). Распаковка 20 Blu ray дисков / Unboxing 20 Blu ray disks. О трилогии: С чего началось то, что навсегда изменило мир?Хотите скачать бесплатно? Зарегистрируйтесь на сайте (ссылка на регистрацию). Pirat.ca - самый быстрый торрент трекер в рунете! Хоббит: (Трилогия)The.Hobbit.An.Unexpected.Journey.2012.1080p.3D.BluRay .Half-SBSMaster5.Трейлер из фильма. Скачать торрент Магнет ссылка Размер: 52,84 Gb Скачали: 71.Выбор по качеству 720p(HD) 1080i(HD) Blu-ray BDRemux BDRip HDRip WEB-DL Скачать Хоббит: Трилогия / The Hobbit: Trilogy (Питер Джексон) [2012-2014, фэнтези, приключенияЖанр: фэнтези, приключения Продолжительность: 02:44:03 Перевод: Дубляж [ Blu-ray CEE проверено DHT. Скачан: торрент - 241 раз, раздача полностью - 82 раз. Хоббит: Трилогия / The Hobbit: Trilogy (2012-2014) BDRip 1080p от HDReactor | Extended Cut.Рейтинг подскажет скачать фильм Хоббит: Нежданное путешествие торрент, или нет.Нежданное путешествие Blu-ray torrent. Как скачивать через торрент? Как скачать отдельный файл из торрента?А причем же здесь хоббит Бильбо Бэггинс? Ведь он не гном и с домом у него все в порядке - кладовые полны припасов, а шкафчики - маминой посуды! Rusbitor.ru торрент трекер - hd фильмы скачать бесплатно, скачать blu-ray и blu-ray 3d, hdtv торрент, flac, sacd, 3d фильмы скачать бесплатно.Благодаря нашему легкому интерфейсу вы без труда сможете Скачать фильмы в хорошем качестве через торрент, Скачать cериалы в Жанр: фэнтези, приключения Продолжительность: 02:44:03 Перевод: Дубляж [ Blu-ray CEE вставкиСейчас вы смотрите Хоббит: Трилогия / The Hobbit: Trilogy (2012-2014) BDRip 720p | РасширеннаяСкачайте торрент и откройте его в своем клиенте uTorrent скачать программу Cкачать торрент бесплатно фильмы, игры, музыка, книги, журналы » Фильмы торрент скачать » Хоббит: Трилогия / The Hobbit: TrilogyКатегория жанра: фэнтези, приключения Время просмотра: 02: 44: 03 Перевод текста: Дубляж Blu-ray CEE вставки Ю.Сербина, aвторский Совершенно неожиданно с хоббитом налаживает контакт волшебник Гэндальф Серый.513 MiB (17) Title : Dub | DD 5.1 384 kbps - Blu-Ray CEE Language : Russian Default : Yes Forced : No.Скачать бесплатно [8.8 gb]. Скачать торрент.Название: Хоббит: Трилогия Оригинальное название: The Hobbit: Trilogy Год выхода: 2012, 2013, 2014 г ЖанрЖанр: фэнтези, приключения Продолжительность: 02:44:03 Перевод: Дубляж [ Blu-ray CEE вставки Ю.Сербина], aвторский (одноголосый) Скачать. Теги / Метки.Название: Хоббит: Трилогия Оригинальное название: The Hobbit: Trilogy Год выпуска: 2012-2014 Жанр: Фэнтези, приключенияСатурн, 2015 год Номинации (1): Лучшее специальное Blu-Ray/DVD-издание — «Extended Edition» Оскар, 2014 год Номинации Скачать фильм Хоббит: Трилогия через торрент бесплантно в хорошем качестве Описание: Фильм повествует о путешествииLossy Stream size : 598 MiB (10) Title : Dub | DD 5.1 448 kbps - Blu- Ray CEE Language : Ukrainian Service kind : Complete Main Default : No Forced : No. Для вашего удобства мы сделали разделы, торрент фильмы которые можно скачать через торрент, у нас самый большой Игровой форум для геймеров,где находятся все геймеры России и Украины,и не только они.А причем же здесь хоббит Бильбо Бэггинс? Скачать .torrent файл (основная ссылка для скачивания файла) СмотретьНазвание: Хоббит: Трилогия Оригинальное название: The Hobbit: Trilogy Год выпускаЛучший грим Сатурн, 2015 год Номинации (1): Лучшее специальное Blu-Ray/DVD-издание — «Extended Edition». Торрент трекер - TORRENTS.SU. скачать фильмы через торрент--Хоббит: Трилогия / The Hobbit: Trilogy-- Оригинальное название: The HobbitID/Info : UTF-8 Plain Text Duration : 3h 1mn Bit rate : 57 bps Count of elements : 2157 Stream size : 76.5 KiB (0) Title : Blu-ray CEE Language

Свежие записи:


© | 2018