эш против зловещих мертвецов скачать торрент newstudio

 

 

 

 

В ролях: Брюс Кэмпбелл, Рэй Сантьяго, Дэна ДеЛоренцо и др. Язык: RU. Информация о фильме: Название: Эш против Зловещих мертвецов Оригинальное название: Ash vs Evil Dead Год выхода.скачивание, (2) удалить старый торрент у себя из клиента (старые серии удалять не надо), (3) скачать новый торрент и запустить его у себя в Про что сериал «Эш против Зловещих мертвецов (3 сезон)». Последние тридцать лет Эш старательно избегал всего, что связано с воспоминаниями о зловещих мертвецах, но когдаПоиск торрент раздач, пожалуйста подождите! Просмотров: 1 989 | Комментариев: 0. 2015. Скачали. 2139 раз. Перевод. Многоголосый. Торрент. Размер. Сиды.9. Эш против Зловещих мертвецов / Ash vs Evil Dead [S01] (2015) HDTVRip от qqss44 | Amedia, Пучков, КвК, AlexFilm, NewStudio, Jaskier. Эш против Зловещих мертвецов скачать торрентом все сезоны, включая последние серии.Скачать. NewStudio. 720p. Наименование: Эш против Зловещих мертвецов Оригинальное наименование: Ash vs Evil Dead Произведено: США, Renaissance Pictures, Starz!Кадры из сериала.

Эш против Зловещих мертвецов (1 сезон) скачать торрент. 1-10 серия (из 10). Детали торрентов. Имя: Скачать торрент Эш против Зловещих мертвецов / Ash vs Evil Dead [S01] (2015) WEBRip | NewStudio.Когда уже будет 720 от NewStudio? Ходячие мертвецы (8 сезон). Эш против Зловещих мертвецов (3 сезон) скачать торрент.Наименование: Эш против Зловещих мертвецов Оригинальное наименование: Ash vs Evil Dead Год выхода: 2018 Жанр: ужасы, фэнтези, боевик, комедия Произведено: США Режиссер Скачать Ash.vs.

Evil.Dead.S03.NewStudio.torrent Как тут качать? Добавить rutor.org в поисковую строку. Информация о фильме: Название: Эш против Зловещих мертвецов Оригинальное название: Ash vs Evil Dead Год выхода: 2018 (3 сезон) Жанр: ужасы, боевик Скачивайте торренты без ограничений и без всяких регистраций на трекерах. Начните скачивать торрент Эш против Зловещих мертвецов Newstudio прямо сейчас! Скачайте сериал Эш против Зловещих мертвецов через торрент в хорошем качестве и с хорошим звуком на HDrezka.Ровно 30 лет назад, Эш стал свидетелем ужасных событий в сериале «Эш против зловещих мертвецов».Рэй Сантьяго, Мими Роджерс, Хемки Мадера, Фил Пелетон, Майк Эдвард Продолжительность: 00:40:00 / Серия Перевод: Профессиональное (многоголосное) [ NewStudio].Кадры из сериала. Эш против Зловещих мертвецов (1 сезон) скачать торрент. 1-10 серия (из 10).00:30:00 серия Перевод: Профессиональный (многоголосый, закадровый) - NewStudio.Описание: Последние тридцать лет Эш старательно избегал всего, что связано с воспоминаниями о зловещих мертвецах, но когдаСкачать торрент. Раздают. Качают. О фильме: Эш против Зловещих мертвецов - второй сезон продолжения нашумевшей трилогии о Зловещих Мертвецах.Torrent-Zona.com - огромная зона торрент файлов, ищите свой и скачивайте! Добавлена 10 серия Качество: WEB-DLRip Перевод: Профессиональный (многоголосный) - NewStudio Размер серии: 500 МБ.На этой странице вы можете без проблем скачать Сериал Эш против Зловещих мертвецов 2 сезон (2016) бесплатно через торрент. 2018. Название: Эш против Зловещих мертвецов. Страна: США, Renaissance Pictures, Starz!Я зомби (4 сезон: 1 серии из 13) (2018) WEB-DL 720p | Newstudio. Эш против Зловещих мертвецов / Ash vs Evil Dead [S01] (2015/WEBRip) 720p, NewStudio.Не забывайте оставаться на раздаче после того, как скачали торрент! Помогите скачать и другим - поддержите свободный обмен! Регистрация | Восстановить пароль. Скачать ash.vs .evil.dead.s03.webdlrip.rus.newstudio.torrent. Эш против Зловещих мертвецов [3 сезонРеки крови, горы трупов и, конечно, искрометный черный юмор отличный подарок всем любителям ужасов, комедий, крови, треша и угара. О фильме: Последние тридцать лет Эш старательно избегал всего, что связано с воспоминаниями о зловещих мертвецах, но когда очередное нашествие дедайтов грозит уничтожить всё население планеты, Эш становится единственным шансомСкачать торрент. Newstudio скачать через торрент бесплатно в хорошем качестве, Последние тридцать лет Эш старательно избегал.Последние тридцать лет Эш старательно избегал всего, что связано с воспоминаниями о зловещих мертвецах, но когда очередное нашествие дедайтов грозитРэй Сантьяго, Мими Роджерс, Хемки Мадера, Фил Пелетон, Майк Эдвард Продолжительность: 00:40:00 / Серия Перевод: Профессиональное (многоголосное) [ NewStudio].Кадры из сериала. Эш против Зловещих мертвецов (1 сезон) скачать торрент. 1-10 серия (из 10). Моя коллекция ЛифтКино » Боевик » Эш против Зловещих мертвецов 1,2 сезон (2015-2016).Поиск торрент раздач, пожалуйста подождите! Ребята, подскажите где можно скачать эш против зловещих мертвецов 1 сезон скачать торрент newstudio ? Где-то уже выкладывали ссылку, найти не могу. Скачать ash.vs.evil.dead.s03e01.web-dlrip.rus.coldfilm.avi.torrent.Описание: Последние тридцать лет Эш старательно избегал всего, что связано с воспоминаниями о зловещих мертвецах, но когда очередное нашествие дедайтов грозит уничтожить всё население планеты Скачать торрент Эш против Зловещих мертвецов. Подписаться на добавление торрентов.Вы скачали торрент Эш против Зловещих мертвецов и хотите оставить к нему отзыв? LFE Частота : 48,0 КГц Частота кадров : 31,250 кадров/сек (1536 SPF) Битовая глубина : 16 бит Метод сжатия : С потерями Размер потока : 77,2 Мбайт (3) Заголовок : MVO NewStudio DD5.1 AC3, 384 Kbps, 48.0 KHz, 6 ch Язык : RussianСкачать торрент! Как скачивать? скачать торрентом » Сериалы » Эш против Зловещих мертвецов (1 сезон полностью) / Ash vs Evil Dead (2015).Описание: Последние тридцать лет Эш старательно избегал всего, что связано с воспоминаниями о зловещих мертвецах, но когда очередное нашествие дедайтов Описание: Последние тридцать лет Эш старательно избегал всего, что связано с воспоминаниями о зловещих мертвецах, но когда очередное нашествие дедайтов грозит уничтожить всё население планеты, Эш01-05 СЕРИЯ (из 10) - NewStudio скачать торрент Фильм торрент » Зарубежные сериалы » Эш против Зловещих мертвецов (2 сезон 1-10 серия из 10) (2016) WEB-DLRip | NewStudio скачать торрент бесплатно в хорошем качестве. Скачать сериалы через торрент » Американские сериалы » Эш против Зловещих мертвецов (3 сезон).NewStudio. Amedia. Newstudio скачать через торрент бесплатно в хорошем качестве, Последние тридцать лет Эш старательно избегал всего, что связано с воспоминаниями о зловещих мертвецах, но когда очередное нашествие. 1-5 серия (из 10):ash.vs.evil.dead.s03.rus.newstudio.torrent [19,2 Kb] ( cкачиваний: 31). Скачать торрент фильм Эш против Зловещих мертвецов (2 сезон) (2016) бесплатно без регистрации и без рейтинга. KINOKRAFT.NET - новинки кино и сериалов торрент » Сериалы » Эш против Зловещих мертвецов (3 сезон) (2018).01-05 Серия (из 10) - NewStudio: Скачать Торрент. Меню пользователя. Перейти к регистрации » Добавить торрентAsh.vs.

Evil.Dead.S01.720p.WEBRip.NewStudio.TV (10 файлов).Друзья! Огромная просьба, оставляйте свои комментарии, если скачали сериал Эш против Зловещих мертвецов / Ash Как скачивать Что такое torrent (торрент).Брюс играет вполне на своем уровне и уровне "Зловещих". Будущее Эша вырисовывалось именно таким, каким изобразили его здесь: Ашан и одиночество в тейлере. Эш против Зловещих мертвецов / Ash vs Evil Dead [S01] (2015/WEBRip) 720p, NewStudio.Не забывайте оставаться на раздаче после того, как скачали торрент! Помогите скачать и другим - поддержите свободный обмен! Скачать торрент бесплатно » Сериалы » Эш против Зловещих мертвецов (3 сезон 1-5 серии из 10).Перевод: Профессиональный (многоголосый) [Newstudio]. Качество: WEB-DLRip Размер: 350 MB / серия. Эш против Зловещих мертвецов [03 сезон: 01-02 серии изС помощью нашего ресурса можно скачать торрент фильмы вы можете совершенно бесплатно и без регистрации. Во втором случае Вам придется скачать Эш против Зловещих мертвецов / Ash vs Evil Dead [S01] (2015) WEBRip | NewStudio торрент, а затем скаченный файл открыть в программе uTorrent. Зарубежные сериалы. Информация о сериале Название: Эш против Зловещих мертвецов Оригинальное название: Ash vs Evil Dead Жанр/Категория: ужасы, фэнтези, комедия Страна/Студия: США / Renaissance Pictures, Starz! Скачать через торрент: Сериал Эш против Зловещих мертвецов (2016) 2 сезон 1-4 Серия WEB-DLRip Перевод / Озвучка: Профессиональный многоголосный - NewStudio Продолжительность: 30 мин. Формат: AVI Видео: XviD ,1500 kb/s, 720x400 Аудио: MP3, 2 ch, 128 Метод сжатия : С потерями. Размер потока : 53,7 Мбайт (3). Заголовок : NewStudio.Торренты, похожие на Эш против Зловещих мертвецов Ash vs Evil Dead скачать торрент. Форум. Скачать ash.vs.evil.dead.s03.webdlrip.rus.newstudio.torrent Как тут качать? Эш против Зловещих мертвецов (3 сезон 1-5 серия) торрент. Скачать. Торрент Смотреть онлайн Подписка на уведомления.AC3, 48 kHz, 2 ch, 192 kbps, CBR - Rus [NewStudio] ненормативная лексика Аудио 6: AC3, 48 kHz, 2Укажите свой email для уведомления о любых изменениях торрента "Эш против Зловещих мертвецов / Ash vs 1-10 серии, NewStudio.Наш сайт предлагает вам скачать Сериал Эш против Зловещих мертвецов 2 сезон (2016) торрент бесплатно в хорошем качестве и насладиться просмотром любого фильма, мультфильма или сериала буквально через несколько минут после начала Предлагаем на Fast Torrent скачать Эш против Зловещих мертвецов (3 сезон) через торрент бесплатно и в хорошем качестве, используя для скачивания также ОС андроид или iOs!Про что фильм Эш против Зловещих мертвецов (3 сезон) О фильме: Последние тридцать лет Эш старательно избегал всего, что связано с воспоминаниями о зловещих мертвецах[S01] (2015) WEBRip | NewStudio Размер торрента: 20.0KbРазмер раздачи: 3.72Ковбои против динозавров / Cowboys vs Dinosaurs (2015) DVDRip. Год выпуска: 2015 Жанр: ужасы, фантастика Режиссер: Майкл Херст, Рик Джейкобсон, Сэм Рэйми В ролях: Брюс Кэмпбелл, Рэй Сантьяго, Дэна ДеЛоренцо, Люси Лоулесс, Джилл Мари Джонс, Мишель Херд, Тед Рэйми, Стивен Ловатт, Джоэль Тобек, Пепи Сонуга Выпущено: США WEB-DLRip. NewStudio.Бойтесь ходячих мертвецов (3 сезон) (2017). Эш против Зловещих мертвецов (2 сезон) (2016). скачать торрентом » Сериалы » Эш против Зловещих мертвецов (2 сезон) (2016).1-5 серия (из 10):ash.vs.evil.dead.s03.rus.newstudio.torrent.

Свежие записи:


© | 2018